Skip to main content

Phil Lesh and Friends Live at Warren Haynes Christmas Pre-Jam - Orange Peel on 2011-12-09




Phil Lesh & Friends
Warren Haynes Christmas Pre-Jam
Orange Peel
Asheville, North Carolina
12/9/2011

Source: Schoeps 4V'S(din)>Sound Devices 722 (24/48)
FOB/DLFC 40' From Stage, 6' High
DSP: Sound Devices 722>Sound Forge 9.0>CD Wave>flac(16)
Recorded By: Manofz


Disc I: (One Set)

01. New Speedway Boogie >
02. All Along The Watchtower >
03. Franklin's Tower
04. Outro By Martin Anderson

Phil Lesh Bass - And Vocals
Warren Haynes - Guitar And Vocals
Jackie Greene - Guitar And Vocals
Jeff Chimenti - Keyboards And Vocals
Joe Russo - Drums


Collection PhilLeshandFriends
Band/Artist Phil Lesh and Friends
Venue Warren Haynes Christmas Pre-Jam - Orange Peel
Location Asheville, NC

Source Schoeps 4V'S(din)>Sound Devices 722 (24/48) FOB/DLFC 40' From Stage, 6' High
Lineage Sound Devices 722>Sound Forge 9.0>CD Wave>flac(16)
Taped by Manofz
Transferred by Manofz

Notes

Phil Lesh & Friends
Warren Haynes Christmas Pre-Jam
Orange Peel
Asheville, North Carolina
12/9/2011

Source: Schoeps 4V'S(din)>Sound Devices 722 (24/48)
FOB/DLFC 40' From Stage, 6' High
DSP: Sound Devices 722>Sound Forge 9.0>CD Wave>flac(16)
Recorded By: Manofz


Shntool:

length expanded size cdr WAVE problems fmt ratio filename
20:06.29 212806652 B --- -- ---xx flac 0.4669 phil2011-12-09d02t01.flac
7:15.24 76790492 B --- -- ---xx flac 0.4614 phil2011-12-09d02t02.flac
9:36.00 101606444 B --- -- ---xx flac 0.5201 phil2011-12-09d02t03.flac
1:38.43 17388380 B --- -- ---xx flac 0.4252 phil2011-12-09d02t04.flac
38:36.21 408591968 B 0.4773 (4 files)

Reviews

Reviewer: Holt - - November 15, 2012
Subject: Fun
My first Pre-jam and what a grand evening! Really dig this lineup!
Reviewer: grundtster - - December 11, 2011
Subject: Nice!
Hey, nice recording. The New Speedway Boogie mp3 version didn't uplaod correctly. Only the first 11 seconds play.

Thanks!
PEOPLE ALSO FOUND
Phil Lesh and Friends
by Phil Lesh and Friends
909
0
2
( 2 reviews )
Source: Schoeps MK4 (ORTF) > KC5 > CMC6 > Lunatec V3 > Marantz PMD-671 at 24/48
Phil Lesh and Friends
by Phil Lesh and Friends
1,011
1
0
Source: 2x Beyerdynamic MC930's(Matched Stereo Pair)(OTRF)@ 12 ft high >Canare Cables>Digi-Mod Edirol UA5>Nomad JB3(44.1 khz)
Phil Lesh and Friends
by Phil Lesh and Friends
181
1
0
Source: mk41 > kc5 > cmc6 > m248 > minime > hd-p2 (24/96)
Phil Lesh and Friends
by Phil Lesh and Friends
614
1
0
Source: 2x Beyerdynamic MC930's(Matched Stereo Pair)(OTRF)@ 12 ft high >Canare Cables>Digi-Mod Edirol UA5>Nomad JB3(44.1 khz)
Phil Lesh and Friends
by Phil Lesh and Friends
1,093
1
2
( 2 reviews )
Source: 2x Beyerdynamic MC930's(Matched Stereo Pair)(OTRF)@ 12 ft high >Canare Cables>Digi-Mod Edirol UA5>Nomad JB3(44.1 khz)
Phil Lesh and Friends
by Phil Lesh and Friends
1,042
1
0
Source: 2x Beyerdynamic MC930's(Matched Stereo Pair)(OTRF)@ 12 ft high >Canare Cables>Digi-Mod Edirol UA5>Nomad JB3(44.1 khz)
Phil Lesh and Friends
by Phil Lesh and Friends
1,151
1
1
( 1 reviews )
Source: 2x Beyerdynamic MC930's(Matched Stereo Pair)(OTRF)@ 12 ft high >Canare Cables>Digi-Mod Edirol UA5>Nomad JB3(44.1 khz)
Phil Lesh and Friends
by Phil Lesh and Friends
1,415
1
2
( 2 reviews )
Source: 2x Beyerdynamic MC930's(Matched Stereo Pair)(OTRF)@ 12 ft high >Canare Cables>Digi-Mod Edirol UA5>Nomad JB3(44.1 khz)
Phil Lesh and Friends
by Phil Lesh and Friends
3,216
2
2
( 2 reviews )
Source: Neumann Km 184 Mics > Lunatec V2 > Korg Mr-1000
Phil Lesh and Friends
by Phil Lesh and Friends
1,006
1
0
Source: 2x Beyerdynamic MC930's(Matched Stereo Pair)(OTRF)@ 12 ft high >Canare Cables>Digi-Mod Edirol UA5>Nomad JB3(44.1 khz)